L.T. - Les aTomiseurs Index du Forum

L.T. - Les aTomiseurs
Forum de l'alliance "Les aTomiseurs" sur Univers Atlantis - Beta 1

 FAQFAQ   RechercherRechercher   MembresMembres   GroupesGroupes   S’enregistrerS’enregistrer 
 ProfilProfil   Se connecter pour vérifier ses messages privésSe connecter pour vérifier ses messages privés   ConnexionConnexion 

Shepp Archie True Ballads Flac 1

 
Poster un nouveau sujet   Répondre au sujet    L.T. - Les aTomiseurs Index du Forum -> Partie public -> Candidatures
Sujet précédent :: Sujet suivant  
Auteur Message
rekiydea


Hors ligne

Inscrit le: 05 Mai 2016
Messages: 23
Localisation: Lyon

MessagePosté le: Sam 15 Juil - 13:44 (2017)    Sujet du message: Shepp Archie True Ballads Flac 1 Répondre en citant




Shepp Archie True Ballads Flac 1 > bit.ly/2tqvfH7























































Shepp Archie True Ballads Flac 1

985d112f2e
Leave new lrs62 February 20, 2014 4:05 amCloudzer seems to have gone under(00:00:00) Archie Shepp Quartet - Everything Must Change 4Georgia On My Mind (4:58)4If you check he and Hick's wandering around each other in the middle of "Nature Boy," or on Johnny Mandel's "The Shadow of Your Smile," you get a picture of a pair so intent on listening to the nuances in a change or harmonic syllable, that they know exactly how to aurally illustrate the bigger picture to a listenerAs evidenced here on the opening number alone, a smoky, steamy rendition of "The Thrill Is Gone" that could have ended up in anybody's film noir, Shepp's fire may not burn angrily, but it burns low, deep, and hot just the same.Do You Know What It Means To Miss New Orleans? (7:11)2November 2016, 11:53Archie Shepp / Black BalladsUsed drive : TEAC DVD-ROM DV-28SW Adapter: 1 ID: 0Read mode : SecureUtilize accurate stream : YesDefeat audio cache : YesMake use of C2 pointers : NoRead offset correction : 6Overread into Lead-In and Lead-Out : NoFill up missing offset samples with silence : YesDelete leading and trailing silent blocks : NoNull samples used in CRC calculations : YesUsed interface : Native Win32 interface for Win NT & 2000Gap handling : Appended to previous trackUsed output format : Internal WAV RoutinesSample format : 44.100 Hz; 16 Bit; StereoTOC of the extracted CD Track Start Length Start sector End sector ––––––––––––––––––––––––––––- 1 0:00.00 7:16.02 0 32701 2 7:16.02 5:23.38 32702 56964 3 12:39.40 5:02.30 56965 79644 4 17:41.70 4:44.37 79645 100981 5 22:26.32 5:21.53 100982 125109 6 27:48.10 5:28.55 125110 149764 7 33:16.65 8:37.30 149765 188569 8 41:54.20 5:11.67 188570 211961 9 47:06.12 7:58.63 211962 247874 10 55:05.00 5:59.30 247875 274829 11 61:04.30 5:16.02 274830 298531 Track 1 Filename C:My DocumentsMy FLACArchie Shepp - Black Ballads (1992) [FLAC] {Timeless}01 - Do You Know What It Means To Miss New Orleans.wav Pre-gap length 0:00:02.00 Peak level 75.3 % Extraction speed 2.8 X Track quality 100.0 % Test CRC 134D311C Copy CRC 134D311C Accurately ripped (confidence 2) [1AE4CFD4] (AR v1) Copy OKTrack 2 Filename C:My DocumentsMy FLACArchie Shepp - Black Ballads (1992) [FLAC] {Timeless}02 - I Know About The Life.wav Pre-gap length 0:00:04.42 Peak level 82.6 % Extraction speed 2.3 X Track quality 100.0 % Test CRC C32E7200 Copy CRC C32E7200 Accurately ripped (confidence 2) [7A77776C] (AR v1) Copy OKTrack 3 Filename C:My DocumentsMy FLACArchie Shepp - Black Ballads (1992) [FLAC] {Timeless}03 - Georgia On My Mind.wav Pre-gap length 0:00:03.38 Peak level 100.0 % Extraction speed 2.4 X Track quality 100.0 % Test CRC 5AC04FF7 Copy CRC 5AC04FF7 Accurately ripped (confidence 2) [B8460E8F] (AR v1) Copy OKTrack 4 Filename C:My DocumentsMy FLACArchie Shepp - Black Ballads (1992) [FLAC] {Timeless}04 - Embraceable You.wav Pre-gap length 0:00:03.33 Peak level 60.6 % Extraction speed 1.8 X Track quality 99.9 % Test CRC F4F54212 Copy CRC F4F54212 Accurately ripped (confidence 2) [7F9F1946] (AR v1) Copy OKTrack 5 Filename C:My DocumentsMy FLACArchie Shepp - Black Ballads (1992) [FLAC] {Timeless}05 - Smoke Gets In Your Eyes.wav Pre-gap length 0:00:02.72 Peak level 73.6 % Extraction speed 2.8 X Track quality 99.9 % Test CRC F9F2147D Copy CRC F9F2147D Accurately ripped (confidence 2) [720808DF] (AR v1) Copy OKTrack 6 Filename C:My DocumentsMy FLACArchie Shepp - Black Ballads (1992) [FLAC] {Timeless}06 - How Deep Is The Ocean.wav Pre-gap length 0:00:02.70 Peak level 100.0 % Extraction speed 3.9 X Track quality 100.0 % Test CRC 0CA0FA80 Copy CRC 0CA0FA80 Accurately ripped (confidence 2) [CC07CB7F] (AR v1) Copy OKTrack 7 Filename C:My DocumentsMy FLACArchie Shepp - Black Ballads (1992) [FLAC] {Timeless}07 - Lush Life.wav Pre-gap length 0:00:03.25 Peak level 100.0 % Extraction speed 4.2 X Track quality 100.0 % Test CRC 4933E7A4 Copy CRC 4933E7A4 Accurately ripped (confidence 2) [78D2269C] (AR v1) Copy OKTrack 8 Filename C:My DocumentsMy FLACArchie Shepp - Black Ballads (1992) [FLAC] {Timeless}08 - Dj Vu.wav Pre-gap length 0:00:04.00 Peak level 68.9 % Extraction speed 0.8 X Track quality 100.0 % Test CRC 90B3FA0D Copy CRC 90B3FA0D Accurately ripped (confidence 2) [0CA0450A] (AR v1) Copy OKTrack 9 Filename C:My DocumentsMy FLACArchie Shepp - Black Ballads (1992) [FLAC] {Timeless}09 - Angel Eyes.wav Pre-gap length 0:00:03.55 Peak level 74.9 % Extraction speed 5.0 X Track quality 100.0 % Test CRC DF9E0E36 Copy CRC DF9E0E36 Accurately ripped (confidence 2) [C87ED44A] (AR v1) Copy OKTrack 10 Filename C:My DocumentsMy FLACArchie Shepp - Black Ballads (1992) [FLAC] {Timeless}10 - All Too Soon.wav Pre-gap length 0:00:02.33 Peak level 80.6 % Extraction speed 3.3 X Track quality 100.0 % Test CRC 9706CEDA Copy CRC 9706CEDA Accurately ripped (confidence 2) [3E245022] (AR v1) Copy OKTrack 11 Filename C:My DocumentsMy FLACArchie Shepp - Black Ballads (1992) [FLAC] {Timeless}11 - Ain't Misbehavin'.wav Pre-gap length 0:00:04.25 Peak level 100.0 % Extraction speed 3.2 X Track quality 100.0 % Test CRC 3418405C Copy CRC 3418405C Accurately ripped (confidence 2) [AE9331A0] (AR v1) Copy OKAll tracks accurately rippedNo errors occurredEnd of status report–– CUETools DB Plugin V2.1.6[CTDB TOCID: WVW051hyTexBYMD5BwdkaAPLMk-] foundSubmit result: WVW051hyTexBYMD5BwdkaAPLMk- has been confirmedTrack CTDB Status 1 (16/16) Accurately ripped 2 (16/16) Accurately ripped 3 (16/16) Accurately ripped 4 (16/16) Accurately ripped 5 (16/16) Accurately ripped 6 (16/16) Accurately ripped 7 (16/16) Accurately ripped 8 (15/16) Accurately ripped 9 (15/16) Accurately ripped 10 (16/16) Accurately ripped 11 (16/16) Accurately ripped==== Log checksum 3D33871330A973FFC43B585D4941D393C4CBF73CF726983E9A576EB0B4063852 ==== Archie Shepp - Black Ballads (1992) {Timeless} Close NITROFLARE (FLAC)NITROFLARE (MP3) - All Too Soon 11

Company Registration Number: 07872671(00:00:00) Archie Shepp Quartet - The Thrill Is Gone 2AllMusic AllMovie SideReel Celebified About FAQ Feedback Advertise Copyright Policy Privacy Policy Terms of Service New Releases Newsletter Remove Ads 2017 AllMusic, member of the RhythmOne groupAll Rights Reserved Discography Browser previous next Stream or buy on: Release Date December 7, 1996 Duration 01:09:16 Genre Jazz Styles Avant-Garde Jazz Progressive Jazz Recording Date December 7, 1996 Recording Location Clinton Studio, NY Submit Corrections Archie Shepp True Ballads AllMusic Rating 9 User Ratings (0) Your Rating Overview ↓ User Reviews ↓ Credits ↓ Releases ↓ Similar Albums ↓ Share this page facebook twitter google+ AllMusic Review by Thom Jurek This 1996 set features tenor saxophonist Archie Shepp with pianist John Hicks, bassist George Mraz, and drummer Idris Muhammad playing an inspired set of balladsAin't Misbehavin' (5:16)Archie Shepp-tenor and also saxophoneHorace Parlan-pianoWayne Dockery-bassSteve McRaven-drumsProduced by Peter JuijtsRecording engineer: Max BollemanRecorded at Studio 44, Monster, Holland on 13 January, 1992Executive Producer: Wim Wigt EAC Log Exact Audio Copy V1.1 from 23Advanced search Worlds biggest lossless archive Login Sign Up Artist 2017 0-9 z y x w v u t s r q p o n m l k j i h g f e d c b a Archie Shepp Quartet - True Ballads '1996 ArtistArchie Shepp Quartet Album name True Ballads Country Date 1996 GenreJazz Play time 00:00:00 Format / Bitrate FLAC 0 KbpsMP3 320 KbpsM4A 320 Kbps Media CD Size 378.81 Mb Price$2.95 Add to cart Track list 1With Muhammad on drums there is a certain laid-back groove that's organic in every number, and in Mraz, without his slim tone but silvery fingers, there's a polished elegance that makes the entire package Shepp's finest ballad date everArtist: Archie Shepp QuartetTitle Of Album: True BalladsYear Of Release: 1996Label: Venus RecordsGenre: JazzQuality: FLAC (Tracks,cue,log,scans) MP3Bitrate: lossless 320kbpsTotal Time: 60:09 minTotal Size: 385 mb/166 mb01If you check he and Hick's wandering around each other in the middle of "Nature Boy," or on Johnny Mandel's "The Shadow of Your Smile," you get a picture of a pair so intent on listening to the nuances in a change or harmonic syllable, that they know exactly how to aurally illustrate the bigger picture to a listenerSign in / Sign UpYour MusicAccountMenuSearch Return to the homepage Search Back to the topCheckout…Skip to footer Back to the topCloseHomeFeatured MusicDeals of the WeekHi-Res/FLACNew AlbumsNew TracksPre-ordersChartsInterviewsAlabama ShakesAlicia KeysAlmaAlt-JAustraBullyCorinne Bailey RaeDan ManganDua LipaEzra FurmanFirst Aid KitFuture IslandsGiorgio MoroderGlass AnimalsGold PandaHaley BonarHurray For The Riff RaffJamie LidellJessie WareJos GonzlezLissieLittle DragonLydia AinsworthNathaniel RateliffPerfume GeniusPoliaRa Ra RiotReal EstateRoyal BloodSan FerminSinkaneSusanne SundfrSylvan EssoThe ChainsmokersThe CharlatansThe Lemon TwigsThe Piano GuysThis Is The KitTobias Jesso Jr.VillagersWarpaintWild BeastsWolf AliceYears & YearsZara LarssonsgeirRecommendedBest of 2014Best of 2015Best of 2016Best of 2017 so far.Featured MusicOnes To Watch 2017Events58th Annual GRAMMY AwardsBillboard Music Awards 2015BonnarooBonnaroo 2017Cambridge Folk FestivalCoachella 2016Coachella 2017Eaux Claires 2017Electric Daisy Carnival NYCFYF Festival 2017Governors Ball 2017Pitchfork Music Festival 2017Label FocusDominoWarpGenresView allPopElectronicDanceRockAlternativeWorldJazzHouseClassicalInstrumentalLatinTechnoNew AgeCountryCompilation 7digital United States/ Archie Shepp Quartet/ True BalladsHigh quality music downloadsTrue BalladsArchie Shepp Quartet Preview True Ballads16-bit FLACRelease Date:06/03/2015Record Label:Venus Records, Inc

activar sygic 13.1.0 gps navigation androidcopytrans contacts v1.023 activation codemarder 1 full movie.comwondershare data recovery license emailHDCLONE ENTERPRISE V4.03Battleship (2012) DVDRip Xvid x264 (Update)S60V5 unicode font.ttf.7ztrixie preteen model set 150thea render 1.1.06 keygenFilm Italiano


Revenir en haut
Publicité






MessagePosté le: Sam 15 Juil - 13:44 (2017)    Sujet du message: Publicité

PublicitéSupprimer les publicités ?
Revenir en haut
Montrer les messages depuis:   
Poster un nouveau sujet   Répondre au sujet    L.T. - Les aTomiseurs Index du Forum -> Partie public -> Candidatures Toutes les heures sont au format GMT + 2 Heures
Page 1 sur 1

 
Sauter vers:  

Index | Panneau d’administration | forum gratuit | Forum gratuit d’entraide | Annuaire des forums gratuits | Signaler une violation | Conditions générales d'utilisation
Powered by phpBB © 2001, 2005 phpBB Group
Traduction par : phpBB-fr.com